Ice Age: La edad de hielo | Zu guter Letzt (2017) (2017) Neue link: 2017/08/24 Views: 3711 Länge: 108 min IMDB rating: 6.5 Uploaded: 2017/05/24 Zu guter Letzt (2017) 2017 | 999 Nụ Hôn Bá Đạo Của Nam Thần – Chap 289
 
[ Сегодня идет свободное скачивание без начисления Download ]


Статистика раздачи
Скачал: [ 20 ]
 
   
 
 
 
 
Дрожь земли 6
Tremors: A Cold Day in Hell
- Информация
Производство: США, ЮАР / Universal 1440 Entertainment
Жанр: Ужасы, фантастика, боевик, комедия
Режиссер: Дон Майкл Пол
Актеры: Майкл Гросс, Джейми Кеннеди, Таня ван Граан, Джессика Энсти, Грег Крик, Стефани Шилдкнект, Дженна Аптон, Роб ван Вуурен
Описание:
Берт Гаммер и его сын Трэвис Уэлкер отправляются в Канаду, чтобы расследовать серию атак гигантских червей, и оказываются среди грабоидов. Берт начинает подозревать, что военные пытаются приспособить подземных монстров для своих нужд, но тут дело принимает неожиданный оборот: один из грабоидов отравляет его. Единственное спасение — сделать антидот из свежего яда, но для этого надо подоить грабоида.


Рейтинг MPAA: PG-13 (детям до 13 лет просмотр нежелателен)
Дата мировой премьеры: 1 мая 2018
Продолжительность: 01:37:58
Перевод: Многоголосый закадровый, любительский (RusFilm)
Файл
Качество видео: HDRip Сэмпл
Видео: XviD, 720x400, ~1802 Kbps
Аудио: AC-3, 2 ch, 192 Kbps
Субтитры: Отсутствуют

MediaInfo:

Общее
Полное имя : E:\Дрожь земли\Tremors A Cold Day in Hell 2018 HDRip.avi
Формат : AVI
Формат/Информация : Audio Video Interleave
Размер файла : 1,37 Гбайт
Продолжительность : 1 ч. 37 м.
Общий поток : 2003 Кбит/сек
Программа кодирования : VirtualDubMod 1.5.10.3 | www.virtualdub-fr.org || (build 2550/release)
Библиотека кодирования : VirtualDubMod build 2550/release
Видео
Идентификатор : 0
Формат : MPEG-4 Visual
Профиль формата : Advanced [email protected]
Настройки формата : BVOP1 / Custom Matrix
Параметр BVOP формата : 1
Параметр QPel формата : Нет
Параметр GMC формата : Без точки перехода
Параметр матрицы формата : Выборочная
Идентификатор кодека : XVID
Идентификатор кодека/Подсказка : XviD
Продолжительность : 1 ч. 37 м.
Битрейт : 1802 Кбит/сек
Ширина : 720 пикселей
Высота : 400 пикселей
Соотношение сторон : 16:9
Частота кадров : 23,976 (24000/1001) кадра/сек
Цветовое пространство : YUV
Субдискретизация насыщенности : 4:2:0
Битовая глубина : 8 бит
Тип развёртки : Прогрессивная
Метод сжатия : С потерями
Бит/(Пиксели*Кадры) : 0.261
Размер потока : 1,23 Гбайт (90%)
Библиотека кодирования : XviD 1.2.1 (UTC 2008-12-04)
Аудио
Идентификатор : 1
Формат : AC-3
Формат/Информация : Audio Coding 3
Идентификатор кодека : 2000
Продолжительность : 1 ч. 37 м.
Вид битрейта : Постоянный
Битрейт : 192 Кбит/сек
Каналы : 2 канала
Расположение каналов : Front: L R
Частота : 48,0 КГц
Частота кадров : 31,250 кадров/сек (1536 SPF)
Битовая глубина : 16 бит
Метод сжатия : С потерями
Размер потока : 135 Мбайт (10%)
Выравнивание : Разделение по промежуткам
Продолжительность промежутка : 42 мс. (1,00 видеокадр)
Время предзагрузки промежутка : 500 мс.
ServiceKind/String : Complete Main

Скриншоты

Скриншоты:

[Цитировать]

6-ая часть ??? серьезно ?? Сколько можно насиловать этих червей

[Цитировать]

hamza, тебе рыбаков не понять! biggrin

[Цитировать]

не качайте. такая муть.

[Цитировать]

Наверно жизненная картина!?

[Цитировать]



Показать сообщения:    

Текущее время: 16-Авг 02:11

Часовой пояс: UTC + 6


Вы не можете начинать темы
Вы не можете отвечать на сообщения
Вы не можете редактировать свои сообщения
Вы не можете удалять свои сообщения
Вы не можете голосовать в опросах
Вы не можете прикреплять файлы к сообщениям
Вы не можете скачивать файлы

!ВНИМАНИЕ!
Сайт не предоставляет электронные версии произведений, а занимается лишь коллекционированием и каталогизацией ссылок, присылаемых и публикуемых на форуме нашими читателями. Если вы являетесь правообладателем какого-либо представленного материала и не желаете, чтобы ссылка на него находилась в нашем каталоге, свяжитесь с нами, и мы незамедлительно удалим ее. Файлы для обмена на трекере предоставлены пользователями сайта, и администрация не несет ответственности за их содержание. Просьба не заливать файлы, защищенные авторскими правами, а также файлы нелегального содержания!